settimanainternazionaledelladanza
» » Various - The Classic Rock Society Presents New Species 32

Various - The Classic Rock Society Presents New Species 32 flac album

Various - The Classic Rock Society Presents New Species 32 flac album Performer: Various
Title: The Classic Rock Society Presents New Species 32
Style: Classic Rock, Prog Rock
Released: 2017
MP3 album: 1415 mb
FLAC album: 1119 mb
Rating: 4.1
Other formats: MP3 AA AUD XM AAC WMA ASF
Genre: Rock

This CD was brought to you by the Classic Rock Society Issued in a cardboard sleeve. Produced in association with ww. rogrock. uk Sleeve: martinrobertcook. Matrix, Runout: 43544 WW. LASSICROCKSOCIETY. Mastering SID Code: IFPI LZ88. Mould SID Code: IFPI AKG C4. Mould SID Code (Stamped over a SID code on mould hub(IFPI 0142)): IFPI BBBB BBBB. Marketplace 0 3 For Sale from €. 0.

com Tracklist: 1. Also Eden, Decoded (5:37) 2. The Tirith, Daughter Of The Water (6:46) 3. The Bulbs, 3572 Off (5:53) 4. Aisles, Sorrow (6:57) 5. Airbridge, Quiet Sky (8:09) 6. Ni, Carl. Lewis (6:08) 7. Dream The Electric Sleep, How Long We Wait (9:29) 8. Magic Bus, City Of Sand (7:22) 9. Poil, Tronche A Cul (6:48) 10. Ekos, Obscuridad (8:21) 11. Frequency Drift, Run (7:07) Total time: 68:43.

Artist: V/A Title Of Album: Classic Rock Society: New Species Volume XI Country: Multinational Year Of Release: 2013 Genre: Progressive Rock Format: FLAC (image+.

Great Rock music collection. VA – Classic Rock Society: New Species Vol. XI (2013) Lossless. Artist: V/A Title Of Album: Classic Rock Society: New Species Volume XI Country: Multinational Year Of Release: 2013 Genre: Progressive Rock Format: FLAC (image+.

CRS Presents - New Species Volume X. ue. CRS Presents - New Species Volume X. ccurip. Various Artists - CRS Presents - New Species Volume X. og. 1 2 3 4 5 6 7 8 9 10 11 12 13 14 15 16 17 18 19 20 21 22 23 24 25 26 27 28 29 30 31 32 33 34 35 36 37 38 39 40 41 42 43 44 45 46 47 48 49 50. Downloads.

September 2014, 19:41. Classic Rock Society, New Species - Volume XIII. Used drive : ASUS DRW-24B1LT Adapter: 4 ID: 0. Read mode : Secure Utilize accurate stream : Yes Defeat audio cache : Yes Make use of C2 pointers : No. Read offset correction : 6 Overread into Lead-In and Lead-Out : No Fill up missing offset samples with silence : Yes Delete leading and trailing silent blocks : No Null samples used in CRC calculations : Yes Used interface : Native Win32 interface for Win NT & 2000

2015 The Classic Rock Society Present. ew Species Volume 21 (various artists compilation). 2015 Southern Rock Christmas (various artists compilation). 2016 Steve Morse – The Sessions (mp3 download compilation with tracks featuring Steve and various artists, which appeared on several different tribute albums before). 2018 Moore Blues For Gary - A Tribute To Gary Moore (various artists tribute to Gary Moore). 1984 companion LP with Debüt magazine (Germany) February 1984. 1993 Lexicon demonstration CD.

Hear all the best new Rock album releases and their best songs each week at New Releases Now. Get free streams of all the best new music in one place! . Rhino Released 06/28/19. Various Woodstock: Back To The Garden - 50th Anniversary Experience. Atlantic Catalog Group Released 06/28/19. Los Straitjackets Channel Surfing. Yep Roc Released 06/21/19. The Gold Needles Through A Window. JEM Released 06/21/19. The Rolling Stones Bridges To Bremen.

Various Artists - Classic Rock Society - New Species - Volume XIV Жанр Progressive Rock Страна multinational Год издания диска 2014 Издатель (Label) Classic Rock Society Catalog Nr. CRS CD. Screamer - Lost In A Green And Blue Sky" PERFORMER "Classic Rock Society" INDEX 01 06:32:55 TRACK 03 AUDIO TITLE "Nick Magnus - Kombat Kid" PERFORMER "Classic Rock Society" INDEX 01 15:32:68 TRACK 04 AUDIO TITLE "Sontaag - Empyrean" PERFORMER "Classic Rock Society" INDEX 01 21:59:28 TRACK 05 AUDIO TITLE "Syzygy - Moth" PERFORMER "Classic Rock Society" INDEX 01 27:07

Tracklist

1 The Atlantropa Project Star Atlantropa 6:21
2 Lifesigns Touch 4:02
3 Circu5 The Amazing Monstrous Grady 5:40
4 When Mary Wings Of Wax 5:09
5 Blind Ego Never Escape The Storm (Live) 7:58
6 TNNE* My Childish Mind 8:30
7 Lesoir Gone And Forgotten (Edit) 4:03
8 Saul Blease Black Hole 5:09
9 Multi Story* Ahead Of Your Time (Live) 8:10
10 Panzerballett White Christmas 5:35

Companies, etc.

  • Pressed By – TMC Media Ltd – 2371

Credits

  • Sleeve – Martin Cook

Notes

This CD was brought to you by the Classic Rock Society
Issued in a cardboard sleeve.

Produced in association with www.progrock.co.uk
Sleeve: martinrobertcook.com

Barcode and Other Identifiers

  • Matrix / Runout: 43544 WWW.CLASSICROCKSOCIETY.CO.UK TMC2371
  • Mastering SID Code: IFPI LZ88
  • Mould SID Code: IFPI AKG C4
  • Mould SID Code (Stamped over a SID code on mould hub(IFPI 0142)): IFPI BBBB BBBB