settimanainternazionaledelladanza
» » Steve Marrs - Somebody Somewhere

Steve Marrs - Somebody Somewhere flac album

Steve Marrs - Somebody Somewhere flac album Performer: Steve Marrs
Title: Somebody Somewhere
Style: Soft Rock, AOR
Released: 2013
Country: US
MP3 album: 1102 mb
FLAC album: 1889 mb
Rating: 4.5
Other formats: APE MP1 MP4 ADX FLAC MP2 AA
Genre: Rock

Steve Marrs - 1982 - Somebody Somewhere. 06 - Why Did I Wait So Long. 05 - Somebody Somewhere. 08 - I Can't Take It No More. 03 - How Was I To Know.

Steve Marrs - 1982 (2013 Remastered) - Somebody Somewhere/Somebody Somewhere (2013 Remastered). Steve Marrs - 1982 (2013 Remastered) - Somebody Somewhere/03 - How Was I To Know. Steve Marrs - 1982 (2013 Remastered) - Somebody Somewhere/05 - Somebody Somewhere. Steve Marrs - 1982 (2013 Remastered) - Somebody Somewhere/02 - Say It Again. Steve Marrs - 1982 (2013 Remastered) - Somebody Somewhere/09 - One More Loser. Steve Marrs - 1982 (2013 Remastered) - Somebody Somewhere/01 - Don't Come Back A Stranger.

Somebody Somewhere 06. Why Did I Wait So Long 07. Just A Dreamer 08. I Can’t Take It No More 09. One More Loser. Artist: Steve Marrs Title: Somebody Somewhere Year Of Release: 1982 Label: Sony Music Genre: Soft Rock Quality: FLAC (tracks+. Tracklist: 01. Don’t Come Back Stranger 02.

Listen to Steve Wood Radio featuring songs from Somebody Somewhere free online. Слушать бесплатное интернет-радио, спорт, музыку, новости, разговорное и подкасты. События в прямом эфире, трансляции игр NFL, MLB, NBA, NHL, университетских команд и матчи Премьер-лиги. CNN, MSNBC, Fox News, ESPN, BBC, NPR.

Somebody Somewhere is the twenty-eighth solo studio album by American country music singer-songwriter Loretta Lynn. It was released on October 4, 1976, by MCA Records. The album peaked at No. 1 on the Billboard Top Country Albums chart, Lynn's sixth solo album to top the chart. The album's single, "Somebody Somewhere (Don't Know What He's Missin' Tonight)" peaked at No. 1 on the Billboard Hot Country Songs chart, Lynn's ninth solo single to top the chart.

Steve Morse (born July 28, 1954) is an American guitarist and composer, best known as the founder of the Dixie Dregs; and since 1994, the guitar player of Deep Purple. Morse's career has encompassed rock, country, funk, jazz, classical, and fusion of these musical genres. In addition to his successful solo career, he was briefly a member of Kansas in the mid-1980s. Most recently, Morse became a member of the supergroup Flying Colors alongside long-time bandmate Dave LaRue.

Tracklist

1 Don't Come Back A Stranger
2 Say It Again
3 How Was I To Know
4 Talkin' About My Baby
5 Somebody Somewhere
6 Why Did I Wait So Long
7 Just A Dreamer
8 I Can't Take It No More
9 One More Loser

Credits

  • Liner Notes [解説] – 金澤寿和*

Notes

Cardboard Sleeve Mini LP, Blu-spec CD2.
Originally released in 1982

Barcode and Other Identifiers

  • Barcode: 4547366195828

Other versions

Category Artist Title (Format) Label Category Country Year
FC 37908 Steve Marrs Somebody Somewhere ‎(LP, Album) Columbia FC 37908 US 1982
FCT 37908 Steve Marrs Somebody Somewhere ‎(Cass, Album) Badland Records FCT 37908 US Unknown
25AP 2359 Steve Marrs Somebody Somewhere ‎(LP, Album, Promo) CBS/Sony 25AP 2359 Japan 1982


Comments: (1)
Kabei
foobar2000 1.3.17 / Dynamic Range Meter 1.1.1log date: 2018-12-26 16:55:53--------------------------------------------------------------------------------Analyzed: Steve Marrs / Somebody Somewhere [JP 2013 CD]--------------------------------------------------------------------------------DR Peak RMS Duration Track--------------------------------------------------------------------------------DR10 -0.09 dB -12.46 dB 4:04 01-Don't Come Back A StrangerDR9 -0.17 dB -11.26 dB 3:13 02-Say It AgainDR10 -0.10 dB -12.53 dB 3:14 03-How Was I To KnowDR10 -0.10 dB -11.90 dB 4:01 04-Talkin' About My BabyDR11 -0.17 dB -13.87 dB 3:27 05-Somebody SomewhereDR9 -0.26 dB -12.69 dB 4:07 06-Why Did I Wait So LongDR10 -0.19 dB -12.80 dB 4:59 07-Just A DreamerDR10 -0.25 dB -12.87 dB 3:20 08-I Can't Take It No MoreDR10 -0.18 dB -11.98 dB 3:33 09-One More Loser--------------------------------------------------------------------------------Number of tracks: 9Official DR value: DR10Samplerate: 44100 HzChannels: 2Bits per sample: 16Bitrate: 978 kbpsCodec: ALAC================================================================================